Hex Hector Flac

0 % Test CRC BEB0BD87 Copy CRC BEB0BD87 Accurately ripped (confidence 2) [742AF372] (AR v2) Copy OK All tracks accurately ripped No errors occurred End of. Electronic. Lady Gaga ft. Free Flac download lossless music. Детали релиза Melanie C (2000-2016) [FLAC (image +. download 1 file. This instrumental was recorded by Sia and David Guetta, and released 6 months ago on Thursday 4th of February 2021. Guest cannot abble to see links, please REGISTER to see links. If I'm Not In Love 09. flac I Turn To You ( Hex Hector Radio Mix ). David Guetta) (Hex & Sia In Space Mix) Floating Through Space (feat. Tracklist: 01. May 04, 2021 · Dzięki bardzo VA-Maximum_Inside_Mixed_And_Compiled_By_Starsplash-3CD-FLAC-2005-MAHOU East_Rockerz-Sound_of_My_Dreams-Promo_CDM-2005-BDSM_iNT DJ_Dean-If_I_Could_Be. RAR / 465 MB; RAR / 128 MB. m4a If I Had You. Download Album Melanie C - Music World Series (2000) Free Download - 01. I Turn To You 04. 此页面由蜘蛛程序自动抓取,以非人工方式自动生成,只作交流和学习使用。. Whitney Houston - Discografia ( 6 Álbuns & 16 Singles + Bônus ) ( 1985 / 2009 ) ( FLAC ) (Torrent) [ FLAC / Dance-pop, Soul, R&B, Pop ] Reconhecida como uma das …. WHATEVER (Arranged by CMJK) 10. Gloria Estefan - Don't Let This Moment End (Hex Hector Dub). Nov 30, 2017 · LISTEN TO MY HEART [Hex Hector Main Mix: English version] 14. Real Time Records. I Will Always Love You (Hex Hector Mix) 14. AUDIENCE (Arranged by Akimitsu Homma) 12. Jan 23, 2021 · 03. Mya - Fallen [3:36] 06. Bedtime Story (Junior Vasquez Mix) 20. Overprotected 03:21 02. Irresistible (Hex Hector & Dezrok Main Club Mix). Depend on you (EUROBEAT GoGo’s remix) 13. Explore releases from Hex Hector at Discogs. A B-side, remix, and enhanced section from the US CD single of "So in Love with Two. 16-bit FLAC. Northern Star (acoustic ver. 21 MB 12 - Mirror Mirror. May 19, 2021 · Starsplash_-_Free-(Kontor203)-CDM-FLAC-2002-ZgbK Goście nie widzą linków. RAR / 823 MB; RAR / 260 MB. 1 MB 20 - I'm Coming Out. Your Song 05. I'm Leavin' - Hex Hector Club. Ne-Yo - Because Of You [3:48] 01. download 1 file. 2MB [Single] BoA - ID; Peace B (Jonathan Peter ' s Sound Factory Dub) [MP3 / 320 / Vinyl] [2001] 2014-01-06 08:40. Yourself (Dub’s Unrestricted remix) 2. Whitney: The Greatest Hits is a compilation album by American singer Whitney Houston, released in May 2000. Feb 16, 2021 · How flac barbie merliah. Download Album Melanie C - Music World Series (2000) Free Download - 01. He won a Grammy Award in 2001 for Best Remixer. cht-edit110 文件大小:1KB,浏览次数:730 次,由分享达人 ji***************ail. I Turn To You (Hex Hector Radio Mix) Remix – Hex Hector: 4:08: 12 – Chili Hi Fly: Is It Love (Radio Edit) 3:10: 13 – Rockell: What U Did 2 Me (JP's Radio Edit) Remix – JP: 3:43: 14 – Zero : Bania U Cygna (Remix) 5:04: 15 – Barry Harris: Dive In The Pool (Radio Edit) 3:57: 16 – Kim Sozzi: Feelin' Me (Hex Hector/ Mac Quayle Radio. It was released by Epic Records on January 14, 1992, as the second single from Jackson’s eighth studio album, Dangerous. Mariah Carey - Through The Rain (Boris & Michi's Club Mix) 06. Lisa Stansfield - Im Leavin (Hex Hector & Mac Quayle Radio Mix) [4:18] 02. flac I Turn To You ( Hex Hector Radio Mix ). Till Morning Comes feat. 29 MiB; Diana Ross - The Very Best Of [Disc1]/19 - Not Over You Yet [Metro Radio Edit]. "I Drove All Night (UK Radio Edit)" is an edit of the Hex Hector Mix. Loleatta Holloway - Relight My Fire [Hex Hector/Mac Quayle Club Mix]. Notes PROMO USE ONLY - NOT FOR RESALE Short intro I Turn To You - Melanie C. 5 [32-bit], Secure mode, Log EZ CD, Log AudioChecker, m3u8, cue,Scans. Ricky Martin ft. ZIP Size MP3: 1518 mb ZIP Size FLAC: (The Remixes By Hex Hector And ADNY) Shindrah - Fade Away. Sasha Barbot - We are United (DJS United NYC) 2. 29 dB REM REPLAYGAIN_TRACK_PEAK 0. AUDIENCE (Arranged by …. 61 MiB; Diana Ross - The Very Best Of [Disc1]/21 - Upside Down. Pussycat Dolls - Don't Cha [3:38] 07. cue) Bitrate: Hi-Fi, lossless audio Performer: Melanie C Album: Northen Star Label: Virgin Made in: Germany Catalog: 7243 8 50065 2 4 Style: Pop Release Date: 2000 Covers: in archive Size. 56 MiB; Diana Ross - The Very Best Of [Disc1]/20 - I'm Coming Out. Listen to your purchases on our apps. Jan 29, 2016 · Preview, buy and download high-quality music downloads of This Is Acting by Sia from 7digital Canada - We have over 30 million high quality tracks in our store. Greatest Love Of All (Club 69 Mix) 15. Lonely (Hex Hector/Mac Quayle Main Club Mix) (10:04) 15. Hex Hector - My Body is a Cage (Hex Hector's Euphoria Mix) 3. Tags: Album, Ballad, Best Album, Lossless, Western. Mariah Carey - Through The Rain (Hex Hector_Mac Quayle Radio Edit) 04. What's In It For Me 02. Sabine Blaizin - Angola Feat. Additional Production & Rework by Axwell. Toni Braxton - Unbreak My Heart (Soul-Hex Anthem Radio Edit)[04:49]. That's How Love Moves 13. Depend on you (EUROBEAT GoGo’s remix) 13. I'm Outta Love (Hex Hector Radio Edit) 2. Lisa Stansfield - Never, Never Gonna Give You Up (Frankie Knuckles Mix) [8:42] 03. Apr 30, 2020 · All carefully chosen and taken from freshly converted FLAC files This is the ultimate collection of The Doors' bootleg recordings. Software: EZ CD Audio Converter 9. Lonely (Hex Hector/Mac Quayle Dub Mix) (07:53) 16. Dataluxe. Ricky Martin ft. flac I Turn To You ( Hex Hector Radio Mix ). Classic House. Just Dance If You Want. 18 - Until We Meet Again [Hex Hector Remix]. Ain't No Other Man. My Will (Sweet Dream mix) 2. Human Nature (Runway Mix) 19. The song was written and composed by Teddy Riley, Jackson, and Bernard Belle, and produced by. Music (Hex Hector & Mac Quayle Mix) 13. Boys & Girls Hex Hector Main Club Mix. Filename C:\Users\José e Rosaura\Desktop\Faith Hill - Breathe\03. m4a If I Had You. Release Date: 2016-12-02. Hex Hector Ian Pooley Jonathan Peters Klubbheads Metro Motiv8 Mousse T. Download Floating Through Space (feat. Heart on Wave (2FT mix) 2. Whitney: The Greatest Hits is a compilation album by American singer Whitney Houston, released in May 2000. Tina Turner - When The Heartache Is Over (Hex Hector Remixes) download flac. It´s Not Right But It´s Okay (Thunderpuss Mix) 16. Additional Production & Remix By Hex Hector & Dezrok for Ground Control Productions. I'm A Slave 4 U 03:26 02. enjoy The paradise for Latin DJS. flac If You Had My Love (Darkchild Extended Remix). Lisa Stansfield - People Hold On (The Dirty Rotten Scoundrels Mix) [6:11] 05. by Hex-A-Decimal on random colored shells and cassette boxes. Recorded and mixed at Hit Vision Studios, Stockholm Sweden. Go Together 04. download 1 file. Paid My Dues (The S-Man's Darkstar Mix) 4. via the free Bandcamp app, plus high-quality download in MP3, FLAC and more. Through The Rain (Hex Hector/Mac Quayle Radio Edit) Through The Rain (Hex Hector/Mac Quayle Radio. Quality: FLAC 16 bit / 44. Ashanti - Foolish [3:48] 05. The Way You Love Me 08. wav" WAVE INDEX 01 00:00:00 TRACK 03 AUDIO TITLE "Irresistible (Hex Hector & Dezrok Main Dub Mix)" PERFORMER …. I Turn To You 04. Mariah Carey - Through The Rain (Boris & Michi's Radio Edit) 07. Nahrávajte, zdieľajte a sťahujte zadarmo. Dec 02, 2016 · Sia. 21 MB 12 - Mirror Mirror. Ameme - Oluwa 6. flac 26M (2008) - Christina Aguilera - Keeps Gettin' Better_ A Decade of Hits/09. Formát: Free Lossless Audio Codec (FLAC) Bitrate: Lossless, (avg. Детали релиза Melanie C (2000-2016) [FLAC (image +. That's How Love Moves 13. Hex Hector - My Body is a Cage (Hex Hector's Euphoria Mix) 3. Лента с персональными рекомендациями и музыкальными новинками, радио, подборки на любой вкус, удобное управление своей коллекцией. Remix - Hex Hector; Álbum. flac I Turn To You ( Hex Hector Radio Mix ). Oct 21, 2020 · 01 Jessica Simpson - Irresistible (Hex Hector Dezrok Main Club Mix) (8:57) 02 Jessica Simpson - Irresistible (Hex Hector Dezrok Main Club Mix - Vocal Up) (8:57) 03 Jessica Simpson - Irresistible (Hex Hector Dezrok Main Club Mix - TV Track) (8:57). Never Gonna Fall - Junior Vasquez Mix 8:43 5. Recorded and mixed at Hit Vision Studios, Stockholm Sweden. BEST flac music download, Flac Lossless ape wav. Download Floating Through Space (feat. compression: 76%) Deborah Cox - Nobody's Supposed To Be Here (Hex Hector Radio Edit)[04:12] 18. 【日韩】滨崎步 - Dearest 作词:滨崎步作曲:crea+d. Northern Star 02. Whitney Houston《世纪典藏》2CD Wav Format 專輯名稱:世紀典藏 歌手姓名:惠特妮·休斯頓-Whitney Houston版權提供:Sony. atomic energy 02. People Hold On - Dirty Rotten Scoundrels Mix* 6:11 6. Lady Gaga ft. Feb 16, 2021 · How flac barbie merliah. wav" WAVE INDEX 01 00:00:00 TRACK 03 AUDIO TITLE "Irresistible (Hex Hector & Dezrok Main Dub Mix)" PERFORMER …. The set consists of disc one with ballads and disc two with uptempo numbers and remixes. If My Heart Had Wings 11. Mariah Carey - Through The Rain (Hex Hector _ Mac Quayle Club Mix) 05. Sarah Brightman - Harem (Hex Hector Remix) (2003) [Electronic] Sarah Brightman - In Concert (1997) [Classical] Sarah Brightman - La Luna (2000) [Pop] Sarah Brightman - Symphony (2008) [Classical] Sarah Brightman - Symphony: Live In Vienna (2009) [Classical] Sarah Brightman - The Harem World Tour: Live From Las Vegas (2004) [Pop]. David Guetta) (Hex Hector's Roller Jam Mix) Floating Through Space (feat. Through The Rain (Hex Hector/Mac Quayle Radio Edit) 3. He won a Grammy Award in 2001 for Best Remixer. atomic energy 02. "I Drove All Night (UK Radio Edit)" is an edit of the Hex Hector Mix. Left Outside Alone (M*A*S*H Radio Mix) 3. Someone To Call My Lover (Hex Hector/Mac Quayle Club Mix) Come On Get Up (Milk & Sugar Classic Mix) When I Think Of You (Classic Club Mix) The Best Things In Life Are Free (Classic 12") Doesn't Really Matter (Jonathan Peters Club Mix) Alright (with Heavy D. 56 MiB; Diana Ross - The Very Best Of [Disc1]/20 - I'm Coming Out. Tina Turner - When The Heartache Is Over (Hex Hector Remixes) download flac. Overprotected 03:21 02. Edition of 25 copies. Feb 21, 2016 · FLAC Elton John & LeAnn Rimes ‎– Written In The Stars CS (No Longer Available) Hex Hector/Dezrok Dub [9:30] 07. m4a If You Had My Love (Dark Child Remix Radio Edit). Northern Star (acoustic ver. Tracklist: 01. (Stay & Solve (Beatwave Anthem mix) 2. flac I Turn To You ( Hex Hector Radio Mix ). Matrix / Runout: 0150244 01 SMEA; Mastering SID Code: IFPI L681; Companies. CD issued in a slimline jewel case. Send a Little Love (Beatwave remix) 2. Colby O Donis - Just Dance (Dj XM Electro Remix Cut). 01 - I'm Outta Love (Hex Hector Acapella) 02 - I'm Outta Love (Hex Hector Dub) 03 - I'm Outta Love (Hex Hector Main Club Mix) 04 - I'm Outta Love (Hex …. com 于 Mar 9, 2018 12:00:00 AM 上传到百度网盘。. fairyland (Hex Hector remix) 8. Published by Sonar Music/adm. My Will (Sweet Dream mix) 2. Lady Gaga feat. Jan 23, 2021 · 03. Sick And Tired (Jason Nevins Funkrock Remix Edit) 5. Can’t Lose 14. After instalation and on the first run , select FLAC format as your …. If My Heart Had Wings 11. So in Love with Two (Hex Hector Club Mix) download. Additional Production & Rework by Axwell. Lady Gaga vs. Release information about Whitney_Houston-The_Essential_Whitney_Houston-2CD-FLAC-2010-c05. TAKE BACK 13. Tina Turner - When The Heartache Is Over (Hex Hector Remixes) download flac. I Love Rock 'N' Roll 03:08 02. Ashanti - Foolish [3:48] 05. Send a Little Love (Beatwave remix) 2. Let's Make Love 06. Northern Star (acoustic ver. com 于 Mar 9, 2018 12:00:00 AM 上传到百度网盘。. Producer - Samuel Dixon *, Sia Furler. Lady GaGa featuring Colby O'Donis. Trust (Arranged by Akimitsu Homma) 11. Everybody Be Somebody. m4a If I Had You. Kelly Price & Joe) 03 -Through The Rain (Hex Hector/Mac Quayle Radio Edit) 04 -Through The Rain (Hex Hector / Mac Quayle Club Mix). Lisa Stansfield - People Hold On (The Dirty Rotten Scoundrels Mix) [6:11] 05. Boys & Girls Hex Hector Main Club Mix. BEST flac music download, Flac Lossless ape wav. 21 MB 21 - Upside Down. See more of Classics Retro - Grupo Lata Velha on Facebook. Colby O Do. Trust Your Love 03. People Hold On - Dirty Rotten Scoundrels Mix* 6:11 6. Boys & Girls …. That's How Love Moves 13. Made in Eu. Your Song 05. Lossless Albums » Electronic / Club » Twelve Inch Nineties Feels Like Heaven (2017) FLAC Genres: Electronic / Club 26-11-2017, 00:22 1 491 Rock_man All music Various. Greg Kurstin, Writer - David Guetta, DJ, FeaturedArtist - Sia Furler, Writer - HEX HECTOR, Remixer - Sia, MainArtist - Tony Aliperti, Producer. 12 Everything (Hex Hector's Club Mix) 13 LAILA (So So Def Remix) 14 陽のあたる場所 (MASTER KEY Remix~featuring K-DUB SHINE) 15 太陽の地図(Gomi's Vajra Mix) 16 Sukoshi Zutsu …. Download Album Melanie C - Music World Series (2000) Free Download - 01. Producer - Samuel Dixon *, Sia Furler. Electronic / Pop. The Way You Love Me 08. See more of Classics Retro - Grupo Lata Velha on Facebook. thomson-multimedia. Matrix / Runout: 0150244 01 SMEA; Mastering SID Code: IFPI L681; Companies. ) (12" House Mix) Rock With U (Ultimix Mix) Any Time, Any Place (D&D House Mix). Real Time Records. CD issued in a slimline jewel case. Electronic. Nov 27, 2018 · 18 Until We Meet Again (Hex Hector Remix – Radio Edit) 19 Not Over You Yet (Metro Radio Edit) 20 I’m Coming Out 21 Upside Down 22 My Old Piano. flac: Anastacia - Paid my dues (S-Man's darkstar mix). Credit allows you to download with unlimited speed. Files: 230, Size: 6. Uplevel BACK 22. Not That Kind (Kerri Chandler Mix - Radio Edit) 8. Dream - Eternal Dream (2002) (FLAC)的bt种子磁力链接,迅雷链接列表由BTsouxia从互联网收录并提供. (Hex Hector Single Remix) [1999. WHATEVER (Arranged by CMJK) 10. Greatest Love Of All (Club 69 Mix) 15. Lisa Stansfield - Im Leavin (Hex Hector & Mac Quayle Radio Mix) [4:18] 02. Mariah Carey - Through The Rain (Hex Hector _ Mac Quayle Club Mix) 05. Interview download. He was born in Manhattan, New York, of a Puerto Rican mother and Cuban father. Houston’s performance of “The Star-Spangled Banner” at Super Bowl XXV, and 1988 Olympics tribute “One Moment in Time” are also included in. Northern Star (acoustic ver. This instrumental was recorded by Sia and David Guetta, and released 6 months ago on Thursday 4th of February 2021. Upload, share, search and download for free. 1 MB 20 - I'm Coming Out. May 04, 2021 · Dzięki bardzo VA-Maximum_Inside_Mixed_And_Compiled_By_Starsplash-3CD-FLAC-2005-MAHOU East_Rockerz-Sound_of_My_Dreams-Promo_CDM-2005-BDSM_iNT DJ_Dean-If_I_Could_Be. This production is musically considered sad and energetic. Dataluxe Radio Edit [4:15] 08. Louie DeVito - Never Leave You (Uh Oooh, Uh Oooh) [3. View credits, reviews, tracks and shop for the 2002 CD release of "Wish I Didn't Miss You" on Discogs. I'm Not A Girl, Not Yet A Woman (Metro. Published by Sonar Music/adm. I Turn To You (Hex Hector Radio Mix) Remix - Hex Hector: 4:08: 12 - Chili Hi Fly: Is It Love (Radio Edit) 3:10: 13 - Rockell: What U Did 2 Me (JP's Radio Edit) …. The Remix Album (titled The #1 Remixes (EP) in North America) is the first remix album by British singer Lisa Stansfield, released by Arista Records on 2 June 1998. download 1 file. Depend on you (EUROBEAT GoGo’s remix) 13. See more of Classics Retro - Grupo Lata Velha on Facebook. flac If You Come Back. flac" WAVE INDEX 01 00:00:00 TRACK 04 AUDIO TITLE "Five Fathoms (Hex Hector And Mac Quayle Reverse Drum Dub)" ISRC GBCYF9900038 FLAGS DCP REM REPLAYGAIN_TRACK_GAIN -6. It´s Not Right But It´s Okay (Thunderpuss Mix) 16. m4a I Turn To You (Stonebridge R&B Radio Mix ). Someone To Call My Lover (Hex Hector/Mac Quayle Club Mix) Come On Get Up (Milk & Sugar Classic Mix) When I Think Of You (Classic Club Mix) The Best Things In Life Are Free (Classic 12") Doesn't Really Matter (Jonathan Peters Club Mix) Alright (with Heavy D. Container: FLAC (image +. 本当に大切なもの以外 全て舍ててしまえたら いいのにね 现实はただ残酷で そんな时いつだって 目を闭じれば 笑ってる君がいる ah -いつか永远の 眠りにつく日まで どうかその笑颜が 绝え间なくある样に 人间は皆悲しいかな 忘れゆく生き物だ. TAKE BACK 13. 16-bit FLAC; Preview Floating Through Space (feat. 1: (Hex Hector Dance Remix) download mp3 flac. Can’t Lose 14. Through The Rain (Hex Hector/Mac Quayle Radio Edit) Through The Rain (Hex Hector/Mac Quayle Radio. Oscar P - Fela Chant 8. 16-bit FLAC. Ricky Martin ft. Credit allows you to download with unlimited speed. Boys & Girls Hex Hector Dub. My Will (Sweet Dream mix) 2. Tracklist: 01. RAR / 823 MB; RAR / 260 MB. Whitney Houston《世纪典藏》2CD Wav Format 專輯名稱:世紀典藏 歌手姓名:惠特妮·休斯頓-Whitney Houston版權提供:Sony. com 于 Mar 9, 2018 12:00:00 AM 上传到百度网盘。. " The Macromedia Director file on the enhanced CD is apparently damaged, so the program won't load, but the eCard and interview audio are still accessible by opening them directly. David Guetta) - Hex Hector’s Roller Jam Mix is in the key of F♯ Minor, has a tempo of 105 bpm, and is 2 minutes and 57 seconds long. flac: Anastacia - Paid my dues …. Interview download. flac" WAVE INDEX 01 00:00:00 TRACK 04 AUDIO TITLE "Five Fathoms (Hex Hector And Mac Quayle Reverse Drum Dub)" ISRC GBCYF9900038 FLAGS DCP REM REPLAYGAIN_TRACK_GAIN -6. flac Extracted successfully Conclusion: this track is CDDA with probability 100%. download 1 file. It Will Be Me 07. Toni Braxton - Unbreak My Heart (Soul-Hex Anthem Radio Edit)[04:49]. 1 MB 20 - I'm Coming Out. I Turn To You (Stonebridge R&B radio mix) 06. Sabine Blaizin - Angola Feat. download 1 file. Download your purchases in a wide variety of formats (FLAC, ALAC, WAV, AIFF) depending on your needs. 5 [32-bit], Secure mode, Log EZ CD, Log AudioChecker, m3u8, cue,Scans. I Got My Baby 03. A B-side, remix, and enhanced section from the US CD single of "So in Love with Two. flac If You Come Back. Lossless music. cht-edit110 文件大小:1KB,浏览次数:730 次,由分享达人 ji***************ail. Download Floating Through Space (feat. Boys & Girls Hex Hector Main Club Mix. Lady Gaga ft. Feb 16, 2021 · How flac barbie merliah. Includes unlimited streaming of We questioned everything. Trust (Arranged by Akimitsu Homma) 11. “Remember the Time” is a 1992 single by American singer and songwriter Michael Jackson. Sick And Tired (Jason Nevins Funkrock Remix Edit) 5. There Will. 01 - I'm Outta Love (Hex Hector Acapella) 02 - I'm Outta Love (Hex Hector Dub) 03 - I'm Outta Love (Hex Hector Main Club Mix) 04 - I'm Outta Love (Hex Hector Radio Edit) Flac. ISO IMAGE download. David Guetta) - Hex Hector’s Roller Jam Mix is in the key of F♯ Minor, has a tempo of 105 bpm, and is 2 minutes and 57 seconds long. Interview download. flac 26M (2008) - Christina Aguilera - Keeps Gettin' Better_ A Decade of Hits/09. Blues Brass and Military Classical Funk and Soul Folk and Country Jazz Hip-hop Kids Latin Not albums Electronic Pop Rock Reggae Screen and stage Other. Ameme - Oluwa 6. Colby O Do. Love Is A Crime (Thunderpuss Club Mix) 7. 此页面由蜘蛛程序自动抓取,以非人工方式自动生成,只作交流和学习使用。. 1 kHz (Tracks) Artist: Mariah Carey Title: Through The Rain EP Released: 2021 Style: Pop RAR Size: 547Mb Tracklist: 01 -Through The Rain (Radio Edit) 02 -Through The Rain (Remix) (feat. Remix Hex Hector. 16-bit FLAC; Preview Floating Through Space (feat. flac music albums and tracks download free. (c) (p) 2003 Sony Music Entertainment (Canada) Inc. Paul van Dyk Peter Rauhofer Pulsedriver Robbie Rivera Roger Sanchez Thunderpuss Tocadisco Todd Terry Tony Moran Victor Calderone WAWA Specials CYBERTRANCE almanac Delerium / Conjure One Dolphin's Mind / Trance Allstars Scooter Jan Johnston Madonna Moby Yello. Apr 01, 2021 · BURNING THE GROUND EXCLUSIVE 1991. Listen to this and millions more tracks online. Record Label: Monkey Puzzle Records Inc. Frozen (Victor Calderone Mix) 17. Download your purchases in a wide variety of formats (FLAC, ALAC, WAV, AIFF) depending on your needs. Boys & Girls Hex Hector Dub. Loleatta Holloway - Relight My Fire [Hex Hector/Mac Quayle Club Mix]. Apr 24, 2009 · I Don't Want To Live Without You. Can’t Lose 14. Paul van Dyk Peter Rauhofer Pulsedriver Robbie Rivera Roger Sanchez Thunderpuss Tocadisco Todd Terry Tony Moran Victor Calderone WAWA Specials CYBERTRANCE almanac Delerium / Conjure One Dolphin's Mind / Trance Allstars Scooter Jan Johnston Madonna Moby Yello. Upload, share, search and download for free. Various - V/A 1 download flac. Whitney Houston - It's Not Right But It's Okay (Thunderpuss Mix/Remastered: 2000) 4:17. Christina Aguilera - You Lost Me (Hex Hector/ Mac Quayle Remix Radio Edit) - Christina Aguilera By Be One With Kpop Aug 10, 2021 Christina Aguilera , POP , Sony Music. Lovingly DIY dubbed copies of We questioned everything. Listen to your purchases on our apps. I´m Your Baby Tonight (Dronez Mix) DOWNLOAD From : Rapidgator, Uploaded, Katfile, Mexashare, …. I Turn To You 04. Lisa Stansfield - Never, Never Gonna Give You Up (Frankie Knuckles Mix) [8:42] 03. 16-bit FLAC. Tina Turner - When The Heartache Is Over (Hex Hector Remixes) download flac. Download Exact Audio Copy. Bedtime Story (Junior Vasquez Mix) 20. Bringin' On The Heartbreak (Live Version) Hidden Content: Quality: FLAC (16-bit) 1. Bringing Out The Elvis 10. (c) (p) 2003 Sony Music Entertainment (Canada) Inc. Hex Hector (born Héctor Ortiz on April 15, 1965), is an American music producer and remixer. Boys & Girls Hex Hector Dub. May 19, 2021 · Starsplash_-_Free-(Kontor203)-CDM-FLAC-2002-ZgbK Goście nie widzą linków. Sabine Blaizin - Angola Feat. The set consists of disc one with ballads and disc two with uptempo numbers and remixes. flac If You Had My Love (Darkchild Remix). Love Is A Sweet Thing 04. TO BE (Jonathan Peters Club mix) 9. Download Album Melanie C - Music World Series (2000) Free Download - 01. 本当に大切なもの以外 全て舍ててしまえたら いいのにね 现实はただ残酷で そんな时いつだって 目を闭じれば 笑ってる君がいる ah -いつか永远の 眠りにつく日まで どうかその笑颜が 绝え间なくある样に 人间は皆悲しいかな 忘れゆく生き物だ. 21 MB 21 - Upside Down. Listen to your purchases on our apps. Pussycat Dolls - Don't Cha [3:38] 07. Swing Moleque - Swing Moleque(1996) Formato: FLAC. Electronic. ハイレゾ商品(FLAC)の試聴再生は、AAC形式となります。実際の商品の音質とは異なります。. It was released by Epic Records on January 14, 1992, as the second single from Jackson’s eighth studio album, Dangerous. A B-side, remix, and enhanced section from the US CD single of "So in Love with Two. ZIP Size MP3: 1518 mb ZIP Size FLAC: (The Remixes By Hex Hector And ADNY) Shindrah - Fade Away. Don't Let Me Be The Last To Know (Hex Hector Radio Mix) 04:02 CD 10 01. COLOR OF SOUL …. Through The Rain (Hex Hector/Mac Quayle Radio Edit) Through The Rain (Hex Hector/Mac Quayle Radio. Through The Rain (Hex Hector/Mac Quayle Radio Edit) 3. Toni Braxton - Un-Break My Heart (Soul Solution & Hex Hector Uptempo Mix) 4:48 97. Send a Little Love (Beatwave remix) 2. Download your purchases in a wide variety of formats (FLAC, ALAC, WAV, AIFF) depending on your needs. I'm Outta Love (Hex Hector Radio Edit) 2. Mousse T's Back In The Days Mix (6:49) Ruffneck, Yavahn. A dedicated blog to latin audio releases , mostly CD maxis & cd singles in flac quality for download. Release information about Whitney_Houston-The_Essential_Whitney_Houston-2CD-FLAC-2010-c05. Fade (US remixes). Mariah Carey - Through The Rain (Hex Hector _ Mac Quayle Club Mix) 05. by edel Songs Publishing Scandinavia AB. Albums List : Whitney Houston (The Deluxe Anniversary Edition) - Whitney Houston 1985. Lady Gaga feat. You might also like 16-bit FLAC; Preview Mezzanine. Mariah Carey - Through The Rain (Boris & Michi's Through The Dub Mix) 08. Artworks & Booklets are Included In FLAC. MOON (Clokx remix). Whitney Houston《世纪典藏》2CD Wav Format 專輯名稱:世紀典藏 歌手姓名:惠特妮·休斯頓-Whitney Houston版權提供:Sony. Ashanti - Foolish [3:48] 05. come back 12. Northern Star (acoustic ver. Through The Rain (Hex Hector/Mac Quayle Radio Edit) Through The Rain (Hex Hector/Mac Quayle Radio. COLOR OF SOUL …. 18 - Until We Meet Again [Hex Hector Remix]. PACK Mariah Carey - Through The Rain EP [16 bits|44. " The Macromedia Director file on the enhanced CD is apparently damaged, so the program won't load, but the eCard and interview audio are still accessible by opening them directly. RAR / 465 MB; RAR / 128 MB. 61 MiB; Diana Ross - The Very Best Of [Disc1]/21 - Upside Down. Hex Hector Ian Pooley Jonathan Peters Klubbheads Metro Motiv8 Mousse T. Preview Angel By The Wings. Go Together 04. Container: FLAC (image +. David Guetta) (Hex Hector's Roller Jam Mix) Sia 2021 From $1. It Will Be Me 07. Files: 230, Size: 6. COLOR OF SOUL 07. Louie DeVito - Never Leave You (Uh Oooh, Uh Oooh) [3. A B-side, remix, and enhanced section from the US CD single of "So in Love with Two. Credit allows you to download with unlimited speed. glitter (AKBK “DJ Command” remix) 14. flac: Anastacia - Paid my dues (S-Man's darkstar mix). (c) (p) 2003 Sony Music Entertainment (Canada) Inc. Can’t Lose 14. Let's Make Love 06. cue)] Скачать. 云盘助手本身不储存任何. I Turn To You (Hex Hector Radio Mix) Remix - Hex Hector: 4:08: 12 - Chili Hi Fly: Is It Love (Radio Edit) 3:10: 13 - Rockell: What U Did 2 Me (JP's Radio Edit) …. 16-bit FLAC; Preview Floating Through Space (feat. I Will Always Love You (Hex Hector Mix) 15. 【日韩】滨崎步 - Dearest 作词:滨崎步作曲:crea+d. Pussycat Dolls - Don't Cha [3:38] 07. enjoy The paradise for Latin DJS. Producer, Remix - Hex Hector, Mac Quayle. Record Label: Monkey Puzzle Records Inc. In mickey mantle stats 1963 factory furniture mauldin sc. Llena tu cabeza de Rock´84 - Varios 1984. Artworks & Booklets are Included In FLAC. Record Label: Monkey Puzzle Records Inc. 3 -===- E:\Torrent\Whitney Houston - Heartbreak Hotel (USA)\03-whitney_houston-heartbreak_hotel_(hex_hector_club_mix). Anastacia - One day in your life (Hex Hector club mix). Download Album Melanie C - Music World Series (2000) Free Download - 01. 0kHz 量子化ビット数:24bit. Release Date: 2016-12-02. Tags: Album, Ballad, Best Album, Lossless, Western. 16-bit FLAC; Preview Floating Through Space (feat. Lonely (Junior Vasquez Club Lonely …. Not That Kind (Kerri Chandler Mix - Radio Edit) 8. Hex Hector Ian Pooley Jonathan Peters Klubbheads Metro Motiv8 Mousse T. Preview Angel By The Wings. Dream - Eternal Dream (2002) (FLAC)的bt种子磁力链接,迅雷链接列表由BTsouxia从互联网收录并提供 CD2/2. Electronic. 本当に大切なもの以外 全て舍ててしまえたら いいのにね 现实はただ残酷で そんな时いつだって 目を闭じれば 笑ってる君がいる ah -いつか永远の 眠りにつく日まで どうかその笑颜が 绝え间なくある样に 人间は皆悲しいかな 忘れゆく生き物だ. Trust Your Love 03. The Remix Album (titled The #1 Remixes (EP) in North America) is the first remix album by British singer Lisa Stansfield, released by Arista Records on 2 June 1998. Northern Star (acoustic ver. 29 MiB; Diana Ross - The Very Best Of [Disc1]/19 - Not Over You Yet [Metro Radio Edit]. flac I Turn To You ( Hex Hector Radio Mix ). Don`t Cry For Me Argentina (Miami Mix) 18. It´s Not Right But It´s Okay (Thunderpuss Mix) 16. BoA - LISTEN TO MY HEART (Hex Hector Main English Club Mix). Christina Milian - AM To PM [3:52] 03. AUDIENCE (Arranged by …. glitter (AKBK “DJ Command” remix) 14. Download Fade (US remixes) by Solu Music feat Kimblee at Juno Download. 01 - I'm Outta Love (Hex Hector Acapella) 02 - I'm Outta Love (Hex Hector Dub) 03 - I'm Outta Love (Hex Hector Main Club Mix) 04 - I'm Outta Love (Hex Hector Radio Edit) Flac. Oct 21, 2020 · 01 Jessica Simpson - Irresistible (Hex Hector Dezrok Main Club Mix) (8:57) 02 Jessica Simpson - Irresistible (Hex Hector Dezrok Main Club Mix - Vocal Up) (8:57) 03 Jessica Simpson - Irresistible (Hex Hector Dezrok Main Club Mix - TV Track) (8:57). Greatest Love Of All (Club 69 Mix) 16. In mickey mantle stats 1963 factory furniture mauldin sc. Lisa Stansfield - Never, Never Gonna Give You Up (Frankie Knuckles Mix) [8:42] 03. Entradas populares. Files: 230, Size: 6. y (D-Z Dream Stride mix) 2. Electronic. Go Together 04. ۰۱ - Whitney Houston : You Give Good Love (04:35) (914 Kbps) I Will Always Love You (Hex Hector Club Mix) (09:54) (913 Kbps). I Turn To You (Stonebridge R&B radio mix) 06. David Guetta) (Hex Hector's Roller Jam Mix) Floating Through Space (feat. 12 Everything (Hex Hector's Club Mix) 13 LAILA (So So Def Remix) 14 陽のあたる場所 (MASTER KEY Remix~featuring K-DUB SHINE) 15 太陽の地図(Gomi's Vajra Mix) 16 Sukoshi Zutsu …. Trust Your Love 03. Nov 30, 2013 · 14. Greatest Love Of All (Club 69 Mix) 15. "I Drove All Night (UK Radio Edit)" is an edit of the Hex Hector Mix. Mousse T's Back In The Days Mix (6:49) Ruffneck, Yavahn. It was released by Epic Records on January 14, 1992, as the second single from Jackson’s eighth studio album, Dangerous. Whitney Houston - I Wish You Love More From The Bodyguard (2017) (Mp3 320kbps) [Hunter]. Trust (Arranged by Akimitsu Homma) 11. Ain't No Other Man. Breathe (Hex Hector Main Club Mix). Anastacia - One day in your life (Hex Hector club mix). What's In It For Me 02. Engineer [2nd] - Christian Plata, Erik Madrid. It Will Be Me 07. The Art of Letting Go download. Never, Never Gonna Give You Up - Hani Mix 8:54 7. Northern Star 02. Lady Gaga vs. flac" WAVE INDEX 01 00:00:00 TRACK 04 AUDIO TITLE "Five Fathoms (Hex Hector And Mac Quayle Reverse Drum Dub)" ISRC GBCYF9900038 FLAGS DCP REM REPLAYGAIN_TRACK_GAIN -6. Tina Turner - When The Heartache Is Over (Hex Hector Remixes) download flac. flac) Riptype: tracks (579) Quality: lossless 1 Plus 1 - Cherry Bomb (Hex Hector Club Mix Radio Edit) [09:49] 1 Plus 1 - Cherry Bomb (Hex Hector. Electronic. Includes unlimited streaming of We questioned everything. Tracklist: 01. fairyland (Hex Hector remix) 8. Feb 21, 2016 · FLAC Elton John & LeAnn Rimes ‎– Written In The Stars CS (No Longer Available) Hex Hector/Dezrok Dub [9:30] 07. Made in Eu. Northern Star 02. wav" WAVE INDEX 01 00:00:00 TRACK 03 AUDIO TITLE "Irresistible (Hex Hector & Dezrok Main Dub Mix)" PERFORMER …. m4a If I Had You. COLOR OF SOUL 07. Sasha Barbot - We are United (DJS United NYC) 2. Send a Little Love (Beatwave remix) 2. ハイレゾ商品(FLAC)の試聴再生は、AAC形式となります。実際の商品の音質とは異なります。. Container: FLAC (image +. Additional Production & Remix By Hex Hector & Dezrok for Ground Control Productions. Toni Braxton - Unbreak My Heart (Soul-Hex Anthem Radio Edit) (4:50). Lossless music. Nov 30, 2017 · LISTEN TO MY HEART [Hex Hector Main Mix: English version] 14. Love Is A Sweet Thing 04. FLAC (Free Lossless Audio Codec) サンプリング周波数:44. Lady Gaga vs. come back 12. Ashanti - Foolish [3:48] 05. Albums List : (Hex Hector Club Mix) (09:54) (913 Kbps) Download Album In Flac 16 – bit. Christina Milian - AM To PM [3:52] 03. Nelly - Dilemma [3:56] 04. 40 GB, Se: 65, Le: 58, Category: Music, Language: English, Uploader: PMEDIA, Download added: 21 hours ago, Updated: 08-Sep-2021. 862335 INDEX 00 05:59:59 FILE "04 - Five Fathoms (Hex Hector And Mac Quayle Reverse Drum Dub). It was released by Epic Records on January 14, 1992, as the second single from Jackson’s eighth studio album, Dangerous. compression: 76%) Deborah Cox - Nobody's Supposed To Be Here (Hex Hector Radio Edit)[04:12] 18. Producer, Remix - Hex Hector, Mac Quayle. Lady Gaga ft. Hex Hector Ian Pooley Jonathan Peters Klubbheads Metro Motiv8 Mousse T. Through The Rain …. Nov 30, 2013 · 14. Anastacia - One day in your life (Hex Hector club mix). Whitney Houston (1985-2017) [FLAC] vipe - Torrent4You. Whitney Houston - It's Not Right But It's Okay (Thunderpuss Mix/Remastered: 2000) 4:17. Through The Rain (Hex Hector/Mac Quayle Radio Edit) Through The Rain (Hex Hector/Mac Quayle Radio. Greatest Love Of All (Club 69 Mix) 16. May 04, 2021 · Dzięki bardzo VA-Maximum_Inside_Mixed_And_Compiled_By_Starsplash-3CD-FLAC-2005-MAHOU East_Rockerz-Sound_of_My_Dreams-Promo_CDM-2005-BDSM_iNT DJ_Dean-If_I_Could_Be. Download Album Melanie C - Music World Series (2000) Free Download - 01. It Will Be Me 07. Детали релиза Melanie C (2000-2016) [FLAC (image +. Container: FLAC (image +. Published by Sonar Music/adm. Release Date: 2016-12-02. walk – First Press Bonus Tracks. Ricky Martin ft. Tracklist: 01. Lisa Stansfield - Never, Never Gonna Give You Up (Frankie Knuckles Mix) [8:42] 03. cht-edit110 文件大小:1KB,浏览次数:730 次,由分享达人 ji***************ail. 温馨提示: 请直接点击打开下载链接,密码会自动复制. Send a Little Love (Beatwave remix) 2. Let's Make Love 06. Listen to your purchases on our apps. Bedtime Story (Junior Vasquez Mix) 20. - dusk til. Notes PROMO USE ONLY - NOT FOR RESALE Short intro I Turn To You - Melanie C. Codec: FLAC, (*. (Stay & Solve (Beatwave Anthem mix) 2. Mariah Carey - Through The Rain (Boris & Michi's Radio Edit) 07. Paul van Dyk Peter Rauhofer Pulsedriver Robbie Rivera Roger Sanchez Thunderpuss Tocadisco Todd Terry Tony Moran Victor Calderone WAWA Specials CYBERTRANCE almanac Delerium / Conjure One Dolphin's Mind / Trance Allstars Scooter Jan Johnston Madonna Moby Yello. monochrome (Remo-con classic trance remix) 15. Quality: FLAC (16-bit) 1. 他のバージョン 6件中5件目 全て見る. The set consists of disc one with ballads and disc two with uptempo numbers and remixes. flac" WAVE INDEX 01 00:00:00 TRACK 04 AUDIO TITLE "Five Fathoms (Hex Hector And Mac Quayle Reverse Drum Dub)" ISRC GBCYF9900038 FLAGS DCP REM REPLAYGAIN_TRACK_GAIN -6. Someone To Call My Lover (Hex Hector/Mac Quayle Club Mix) Come On Get Up (Milk & Sugar Classic Mix) When I Think Of You (Classic Club Mix) The Best Things In Life Are Free (Classic 12") Doesn't Really Matter (Jonathan Peters Club Mix) Alright (with Heavy D. David Guetta) (Hex Hector’s. Toni Braxton - Unbreak My Heart (Soul-Hex Anthem Radio Edit)[04:49]. If I'm Not In Love 09. I Run Away 04:07 CD 13 01. Notes PROMO USE ONLY - NOT FOR RESALE Short intro I Turn To You - Melanie C. com 于 Mar 9, 2018 12:00:00 AM 上传到百度网盘。. & In Your Eyes and Club Megamix plus bonus disc featuring remixes from Hex Hector M*A*S*H Jason Nevins Thunderpuss Almighty remixes and more housed in a sealed & stickered hardback book style cover. Real Time Records. to is the largest czech cloud storage. Credit allows you to download with unlimited speed. Lady Gaga - Born This Way - The Remix download flac. Hex Hector (born Héctor Ortiz on April 15, 1965), is an American music producer and remixer. 本当に大切なもの以外 全て舍ててしまえたら いいのにね 现实はただ残酷で そんな时いつだって 目を闭じれば 笑ってる君がいる ah -いつか永远の 眠りにつく日まで どうかその笑颜が 绝え间なくある样に 人间は皆悲しいかな 忘れゆく生き物だ. If My Heart Had Wings 11. FILE "03 - Five Fathoms (Pull Timewarp Mix). Includes unlimited streaming of We questioned everything. Quality: FLAC 16 bit / 44. download 1 file. 3 -===- E:\Torrent\Whitney Houston - Heartbreak Hotel (USA)\03-whitney_houston-heartbreak_hotel_(hex_hector_club_mix). 862335 INDEX 00 05:59:59 FILE "04 - Five Fathoms (Hex Hector And Mac Quayle Reverse Drum Dub). Lisa Stansfield - Never, Never Gonna Give You Up (Frankie Knuckles Mix) [8:42] 03. Why'd You Lie To Me (Nu Soul DnB Mix) 6. "I Drove All Night (UK Radio Edit)" is an edit of the Hex Hector Mix. It Will Be Me 07. Preview Angel By The Wings. Blues Brass and Military Classical Funk and Soul Folk and Country Jazz Hip-hop Kids Latin Not albums Electronic Pop Rock Reggae Screen and stage Other. thomson-multimedia. flac If You Come Back. FLAC APE album size: 1161 mb: WMA album size: 1984 mb: Digital formats: AHX VQF MIDI MMF MPC XM VOC: Tracklist. Whitney: The Greatest Hits is a compilation album by American singer Whitney Houston, released in May 2000. Mya - Fallen [3:36] 06. Paul van Dyk Peter Rauhofer Pulsedriver Robbie Rivera Roger Sanchez Thunderpuss Tocadisco Todd Terry Tony Moran Victor Calderone WAWA Specials CYBERTRANCE almanac Delerium / Conjure One Dolphin's Mind / Trance Allstars Scooter Jan Johnston Madonna Moby Yello. Release Date: 2016-12-02. enjoy The paradise for Latin DJS. Hex Hector (born Héctor Ortiz on April 15, 1965), is an American music producer and remixer. Boys & Girls Hex Hector Dub. Paul van Dyk Peter Rauhofer Pulsedriver Robbie Rivera Roger Sanchez Thunderpuss Tocadisco Todd Terry Tony Moran Victor Calderone WAWA Specials CYBERTRANCE almanac Delerium / Conjure One Dolphin's Mind / Trance Allstars Scooter Jan Johnston Madonna Moby Yello. 42 MB 01 - Chain Reaction.